#TITLE:Rainy Day;
#SUBTITLE:;
#ARTIST:滨崎步;
#TITLETRANSLIT:;
#SUBTITLETRANSLIT:;
#ARTISTTRANSLIT:;
#CREDIT:;
#BANNER:Rainy Day_logo.jpg;
#BACKGROUND:Rainy Day_bg.jpg;
#LYRICSPATH:;
#CDTITLE:Lan.png;
#MUSIC:Rainy Day.mp3;
#OFFSET:0.000;
#SAMPLESTART:100.000;
#SAMPLELENGTH:12.000;
#SELECTABLE:YES;
#BPMS:0.000=90.000;
#STOPS:;
#BGCHANGES:;
// cache tags:
#FIRSTBEAT:32.000;
#LASTBEAT:231.000;
#SONGFILENAME:Songs/SDO/Rainy Day/Rainy Day.sm;
#HASMUSIC:1;
#HASBANNER:1;
#MUSICLENGTH:154.466;
// end cache tags

//---------------dance-single - sky----------------
#NOTES:
     dance-single:
     sky:
     Hard:
     7:
     0.487,0.486,0.427,0.058,0.223,452.000,66.000,9.000,0.000,9.000:

0000
0000
0000
0000
,
0000
0000
0000
0000
,
0000
0000
0000
0000
,
0000
0000
0000
0000
,
0000
0000
0000
0000
,
0000
0000
0000
0000
,
0000
0000
0000
0000
,
0000
0000
0000
0000
,
1010
0100
0010
0010
0001
0010
0100
0100
,
1000
0100
0010
0010
0001
0010
0100
0100
,
1010
0100
0011
0010
0101
0010
1100
0100
,
0101
0010
1100
0100
0100
0010
0011
0001
,
1010
0100
0011
0010
0101
0010
1100
0100
,
0102
1000
1000
1000
0100
1000
1000
1000
,
0013
0100
0010
0001
0010
0100
0010
0100
,
1000
0100
0010
0100
0001
0010
0100
0010
,
0100
0010
0001
0010
1000
0100
0010
0100
,
0001
0000
0010
0000
0100
0000
0010
0000
0100
0000
0010
0000
1000
0010
0000
0000
,
0101
0010
0100
0010
0100
1000
0100
0010
,
0100
0010
0001
0010
0100
0010
1000
0100
,
1001
0010
0100
0010
0100
0010
0100
1000
,
0011
0100
0001
0010
0200
0000
0010
0001
,
1310
0100
0010
0100
1010
0001
0010
0010
,
0101
1000
0010
0100
0011
0010
0100
1000
,
0101
0010
0100
0010
1100
0001
0010
1000
,
0201
0010
0001
0010
1000
0001
0010
0001
,
1310
0100
0010
0100
1010
0001
0010
0010
,
0101
1000
0010
0100
0011
0010
0100
1000
,
0101
0010
0100
0010
1100
0001
0010
1000
,
0201
0010
0001
0010
1000
1000
0010
0001
,
1310
0000
0100
0010
0001
0000
0010
0000
0101
0000
0010
0000
0001
0000
0010
0000
,
0101
0000
0010
0100
1000
0000
0010
0000
0101
0000
0010
0000
0100
0000
0010
0000
,
0101
0000
0010
0100
0010
0000
0001
0000
1010
0000
0000
0000
0100
0000
0010
0010
,
1001
0000
0100
0010
0100
0000
0001
0000
0110
0000
0100
0000
0010
0000
0100
0000
,
1010
0000
0100
0010
0001
0000
0010
0000
1100
0000
0000
0000
0100
0000
0010
0000
,
0101
0000
0010
0100
0010
0000
0010
0000
1001
0000
0010
0000
0100
0000
0000
0000
,
0001
0000
0010
0100
0010
0000
0001
0000
0011
0000
0100
0000
1000
0000
0010
0010
,
0001
0000
1000
0100
1000
0000
0100
0000
0101
0000
0010
0000
0100
0000
0000
0000
,
0101
0000
0100
0010
1000
0000
0100
0000
0011
0000
0000
0000
0100
0000
0010
0000
,
2100
0000
0010
0001
0010
0000
0001
0000
0110
0000
0100
0000
0001
0000
0000
0000
,
3011
0000
0100
0001
0010
0000
0100
0000
1000
1000
0001
0010
0100
0000
0010
0000
,
0001
0010
1000
0100
0010
0000
0100
0000
0011
0100
0010
0000
0100
0000
1000
0000
,
0101
0000
0010
1000
0100
0000
0010
0000
1000
1000
0001
0100
0010
0000
1000
0000
,
2001
0001
0000
0100
0100
0000
0001
0000
0100
0010
0001
0100
0010
0000
0000
0000
,
3101
0000
0010
0001
0100
0000
0100
0000
1000
1000
0001
0010
0100
0000
0010
0000
,
0001
0010
1000
0100
0010
0000
0100
0000
1001
0100
0010
0000
0100
0000
1000
0000
,
0101
0000
0010
1000
0100
0000
0001
0000
0100
0100
0001
0010
0100
0000
1000
0000
,
0201
0001
0000
1000
1000
0000
0001
0000
1000
0010
0001
1000
0010
0000
0000
0000
,
0311
0000
0100
0001
0010
0000
0100
0000
1000
1000
0001
0010
0100
0000
0010
0000
,
0001
0010
1000
0100
0010
0000
0100
0000
0011
0100
0010
0000
0100
0000
1000
0000
,
0101
0000
0010
1000
0100
0000
0010
0000
1000
1000
0001
0100
0010
0000
1000
0000
,
2001
0001
0000
0100
0100
0000
0001
0000
0100
0010
0001
0100
0010
0000
0000
0000
,
3101
0000
0010
0001
0100
0000
0100
0000
1000
1000
0001
0010
0100
0000
0010
0000
,
0001
0010
1000
0100
0010
0000
0100
0000
1001
0100
0010
0000
0100
0000
1000
0000
,
0101
0000
0010
1000
0100
0000
0001
0000
0100
0100
0001
0010
0100
0000
1000
0000
,
0201
0001
0000
1000
1000
0000
0001
0000
1000
0010
0001
1000
0011
0000
0000
0000
,
0310
0000
0001
0010
0100
0000
0100
1000
0010
0000
0001
0000
0010
0000
0100
0000
,
0010
0000
1000
0010
0100
0000
0001
1000
0010
0000
0100
0000
0011
0000
0000
0000
;
